диаграмму потока золотых рудников

Применение

Home > диаграмму потока золотых рудников

диаграмму потока золотых рудников

Дробильные Оборудования

Мобильные Дробилки

Мельничные Оборудования

Грохот&Конвейер, Питатель&Мойка

Золотые прииски сибири

Карты золотых приисков,местностей ... золотых рудников и ... долине водного потока, ...

Получить цену

Тайны злата и серебра.Золото притягивает негатив, а ...

... и существенным увеличением потока золота ... Англии золотых рудников ...

Получить цену

Золото в качестве денег (переход к монетам) / Очерк о золоте

... в то время как разработка рудников ... и золотых рудников) ... из потока обращения и ...

Получить цену

1.3Трехстадиальная модель Гильденбранта—Бюхера: Немецкие ...

... золотых рудников Африки, ... Модель дисконтированного денежного потока (discounted cash flow — DCF) ...

Получить цену

обработка золотого песка

Технологическая линия по обработке потока эфельных ... золотых рудников ...

Получить цену

CDLRudnik, planina Rudnik @ Google Earth - YouTube

CDLRudnik, planina Rudnik @ Google Earth ... до золотых рудников.С точки ... Породица Бистрих Потока ...

Получить цену

Купить Ванадия Высокой Чистоты оптом из Китая

Купить Ванадия Высокой Чистоты оптом из Китая. Товары напрямую с завода-производителя на ...

Получить цену

Денежный металл. Золото или серебро? - Взгляд на "Зазеркалье"

На территории Англии золотых рудников ... ему удалось соскочить с «потока сознания ...

Получить цену

дробилки руды при добыче меди

Медь добывается либо в карьер медной руды или подземных рудников ... золотых и ... потока ...

Получить цену

Как я помогал профукать золото партии! » Вселенная ...

... «Северный коридор» против «Северного потока-2 ... а в виде нескольких золотых рудников ...

Получить цену

дробилки руды при добыче меди

Медь добывается либо в карьер медной руды или подземных рудников ... золотых и ... потока ...

Получить цену

ЗОЛОТОЙ ДУКАТ - goodcoins.su

... потока золота на Запад из рудников в Африке, а также с недавно открытых золотых ...

Получить цену

Старатель (хищник). Добыча золота (самородков) н,VK

В фильме рассказывается о поиске золотых самородков с помощью металлоискателей.

Получить цену

Джил Грегори - Непокорное сердце - чтение книги онлайн

Во время этого потока красноречия Брайони ... двух весьма выгодных золотых рудников в ...

Получить цену

Газопровод «Северный поток» помог найти клад с золотом под ...

Газопровод «Северный поток» помог найти клад с золотом, состоящий из сотни золотых ...

Получить цену

дробилка руды схема shing

Медные руды добывают карьеров и подземных рудников ... Золотых Руд ... потока, мой выбор ...

Получить цену

дробилка руды схема ssia

» Технологическая линия по обогащению золотых руд ... потока, мой выбор ... рудников ...

Получить цену

оборудование из китая для переработки золотой руды

Список золотых рудников и приисков Китая: Акси (Axi) ... медной руды потока процессов, ...

Получить цену

Лестница в небеса / Серии: 1-24 из 24 (Григорий Любомиров ...

Размер потока : 71,8 Мбайт (11%) ... Сына Отца Владельца "Нефтяных компаний" и "Золотых Рудников" ))

Получить цену

Кропоткин, Пётр Алексеевич — Википедия

... где достигла Ленских золотых рудников и ... В районе рудников ... потока, собрал ...

Получить цену

Лестница в небеса / Серии: 1-24 из 24 (Григорий Любомиров ...

Размер потока : 74,5 Мбайт (11%) ... Сына Отца Владельца "Нефтяных компаний" и "Золотых Рудников" ))

Получить цену

Центробежный концентратор FALCON SB. Основные факты ...

Ламинарный поток против турбулентного потока. ... канадских рудников. ... золотых проектов ...

Получить цену

Финансирование. Риски и способы ведения бизнеса - Главная ...

... разработки золотых и серебряных рудников и ... бума потока кредитного ...

Получить цену

История экономических учений,Онлайн Тесты на 4 и 5 ...

... знаменитую “45?-ую диаграмму” ... серебряных рудников в ... золотых и ...

Получить цену

Konstantin Chertov,VK

Похоже байки о том,что на стенках старых штолен золотых рудников могут расти золотинки ...

Получить цену

Невидимые для фотогалереи / Золотодобыча - Добыча золота ...

Извлечение золота в зависимости от скорости потока на шлюзах ... пять золотых рудников в ...

Получить цену

Суд встал на сторону Венесуэлы в споре о золотом руднике ...

Кроме национализации золотых рудников, ... до 3 млрд евро от остановки "Южного потока"

Получить цену

Монеты США — Википедия

Предпосылкой появления двух новых золотых монет ... рудников, ... потока ...

Получить цену

Легендарная Сысерть :: Геокэшинг

Сила потока ... Именно они заложили множество рудников и ни ... десятки рудников, золотых ...

Получить цену

Невидимые линии (версия для печати)

... владелец девяти тысяч золотых рудников и правитель ... из расщелины в полу потока ...

Получить цену
денвер Планта де concentracionдробленый процесс скальпинг рок
  • Процедура экспорта в диаграмме потока индия
  • производство диаграммы железа потока процесс упрощен
  • потока листы для щековой дробилки
  • добыча карта выравнивания потока
  • лист медного листа потока обогатительной потока
  • схема цементных заводов потока
  • обработка свинца диаграммы потока руды
  • лист потока золота процесс завода
  • процессе добычи железной руды диаграмма потока
  • кредиторская задолженность потока процесса в Индии
  • гипсовый рудник триумфатор пу
  • сколько стоит камень пульверизатора
  • добыча вальцовая мельница размером частиц Quarz микрон
  • мобильные дробилки 100 цена
  • especificaciones Fintec 542 сортировочного завода
  • кварц дробилка полевой шпат дробилка
  • ударные дробилки Новая Зеландия
  • камень оборудование, используемое для продажи
  • измельчением древесины машина фото
  • портативная машина для резины дробления
  • Центр Продукции